Harmonius Fellows Clan Index du Forum

Harmonius Fellows Clan
La HF revient en clan alors venez nombreux! ;)

 FAQFAQ   RechercherRechercher   MembresMembres   GroupesGroupes   S’enregistrerS’enregistrer 
 ProfilProfil   Se connecter pour vérifier ses messages privésSe connecter pour vérifier ses messages privés   ConnexionConnexion 

LOL.(Laughing.out.Loud).2009.DVDRip.XviD.HORiZON-ArtSubs.avi

 
Poster un nouveau sujet   Répondre au sujet    Harmonius Fellows Clan Index du Forum -> Coin Blabla -> Graphisme
Sujet précédent :: Sujet suivant  
Auteur Message
validash
Invité

Hors ligne

Inscrit le: 07 Avr 2016
Messages: 115
Localisation: Nice

MessagePosté le: Jeu 28 Avr - 07:30 (2016)    Sujet du message: LOL.(Laughing.out.Loud).2009.DVDRip.XviD.HORiZON-ArtSubs.avi Répondre en citant




LOL.(Laughing.out.Loud).2009.DVDRip.XviD.HORiZON-ArtSubs.avi > urlin.us/1xqeo







LOL.(Laughing.out.Loud).2009.DVDRip.XviD.HORiZON-ArtSubs.avi

6f6ddb31bf
Home Categories Movies TV Shows Music Search CloudLatest Series1080P2015 Movies. Federated States o. . Torrent Metasearch. ▼ Show More ▼ All .

Me and my friends were watching subtitled Flintstones back in the 70s whan we were 5 to 7 and nobody thought 'it sucks'. Get RSS feed Privacy Policy . 0 aw3s0m36882 • 09 Sep 2012, 21:29 Show comment audio: 9video: 9 Good AV . peerstorrent hashb236de04d53d641c616d3ffe23313ffb6869a5ce tracker seeders leechers udp://tracker.coppersurfer.tk:6969/announce222 hours agoudp://tracker.bittorrent.am:80/announce107 hours ago hours agoudp://thetracker.org.:80/announce107 hours ago hours ago hours ago torrent client compatible list udp://thetracker.org.:80/announce udp://tracker.bittorrent.am:80/announce udp://tracker.coppersurfer.tk:6969/announce hide torrent client compatible list . BretonBritish Sign Langu. If you want to download the dvdrip torrent LOL Laughing out Loud (2009) DVDRip XviD HORiZON ArtSubs you will need a torrent client. TswanaTuluTupiTurkishTurkmenTzotzilUighurUkrainianUngwatsiUrduUzbekVietnameseVisayanWashoeWelshWestern FrisianWolofXhosaYakutYiddishYorubaZuluMovie rating:= >=!=Movie country:SelectAfghanistanAlbaniaAlgeriaAmerican SamoaAndorraAngolaArgentinaArmeniaArubaAustraliaAustriaAzerbaijanBahamasBahrainBangladeshBelarusBelgiumBeninBhutanBoliviaBosnia and Herzego. LOL (laughing out loud).avi torrent download free . Sample info: Duration: 01:38:30.08, start: 0.000000, bitrate: 993 kb/s Stream #0.0: Video: mpeg4, yuv420p, 640x256 [PAR 1:1 DAR 5:2], 25 tbr, 25 tbn, 25 tbc Stream #0.1: Audio: mp3, 48000 Hz, 2 channels, s16, 164 kb/s.

Koka Shastra PdfMinerals In Thin Section By Dexter Perkins Torrent DownloadDownload blue filem dewi persikMaximus Arcade 2 10 Serial (fakecollection rarCommand and conquer 3 les guerres du tiberium patch no cd


Revenir en haut
Publicité






MessagePosté le: Jeu 28 Avr - 07:30 (2016)    Sujet du message: Publicité

PublicitéSupprimer les publicités ?
Revenir en haut
Montrer les messages depuis:   
Poster un nouveau sujet   Répondre au sujet    Harmonius Fellows Clan Index du Forum -> Coin Blabla -> Graphisme Toutes les heures sont au format GMT + 2 Heures
Page 1 sur 1

 
Sauter vers:  

Index | Panneau d’administration | creer un forum | Forum gratuit d’entraide | Annuaire des forums gratuits | Signaler une violation | Conditions générales d'utilisation
Powered by phpBB © 2001, 2005 phpBB Group
Traduction par : phpBB-fr.com